<?xml version="1.0" standalone="no"?>
<!DOCTYPE svg PUBLIC "-//W3C//DTD SVG 1.1//EN" "http://www.w3.org/Graphics/SVG/1.1/DTD/svg11.dtd" >
<svg xmlns="http://www.w3.org/2000/svg" xmlns:xlink="http://www.w3.org/1999/xlink" version="1.1">
<metadata>
Created by FontForge 20190801 at Fri May 12 12:07:15 2006
 By root
 The digitally encoded machine readable software for producing the
 Typefaces licensed to you is copyrighted (c) 1989, 1995, 2002 Adobe Systems.
 All Rights Reserved. This software is the property of Adobe Systems
 Incorporated and its licensors, and may not be reproduced, used,
 displayed, modified, disclosed or transferred without the express
 written approval of Adobe.

 The digitally encoded machine readable outline data for producing the Typefaces
 provided as part of your laser printer is copyrighted (c) 1981, 1995, 2002 Heidelberger Druckmaschinen AG.
 All rights reserved. This data is the property of Heidelberger Druckmaschinen AG,
 and may not be reproduced, used, displayed, modified, disclosed or transferred
 without the express written approval of Heidelberger Druckmaschinen AG. 
</metadata>
<defs>
<font id="AvenirLTStd-LightOblique" horiz-adv-x="520" >
  <font-face 
    font-family="Avenir LT Std"
    font-weight="300"
    font-style="oblique"
    font-stretch="normal"
    units-per-em="1000"
    panose-1="2 11 4 2 2 2 3 2 2 4"
    ascent="756"
    descent="-244"
    x-height="462"
    cap-height="708"
    bbox="-168 -277 1039 932"
    underline-thickness="50"
    underline-position="-100"
    slope="-8"
    stemh="54"
    stemv="60"
    unicode-range="U+0020-FB02"
  />
<missing-glyph horiz-adv-x="598" 
d="M98 0v700h500v-700h-500zM348 395l170 255h-340zM378 350l170 -255v510zM178 50h340l-170 255zM148 605v-510l170 255z" />
    <glyph glyph-name="fi" unicode="fi" horiz-adv-x="519" 
d="M369 0l65 462h60l-65 -462h-60zM445 645c3 25 26 45 51 45s42 -20 39 -45c-4 -25 -27 -45 -52 -45s-42 20 -38 45zM114 0l57 408h-96l8 54h96l21 151c17 119 101 155 160 155c29 0 50 -4 67 -12l-19 -52c-13 7 -30 10 -53 10c-55 0 -86 -40 -98 -123l-18 -129h108l-8 -54
h-108l-57 -408h-60z" />
    <glyph glyph-name="fl" unicode="fl" horiz-adv-x="519" 
d="M114 0l57 408h-96l8 54h96l21 151c17 119 101 155 160 155c29 0 50 -4 67 -12l-19 -52c-13 7 -30 10 -53 10c-55 0 -86 -40 -98 -123l-18 -129h108l-8 -54h-108l-57 -408h-60zM369 0l106 756h60l-106 -756h-60z" />
    <glyph glyph-name=".notdef" horiz-adv-x="598" 
d="M98 0v700h500v-700h-500zM348 395l170 255h-340zM378 350l170 -255v510zM178 50h340l-170 255zM148 605v-510l170 255z" />
    <glyph glyph-name="space" unicode=" " horiz-adv-x="260" 
 />
    <glyph glyph-name="exclam" unicode="!" horiz-adv-x="370" 
d="M315 708l-74 -522h-60l74 522h60zM143 42c4 27 28 48 55 48s45 -21 41 -48s-28 -48 -55 -48s-45 21 -41 48z" />
    <glyph glyph-name="quotedbl" unicode="&#x22;" 
d="M228 480l33 228h60l-33 -228h-60zM366 480l33 228h60l-33 -228h-60z" />
    <glyph glyph-name="numbersign" unicode="#" 
d="M91 0l62 229h-108l7 48h115l44 156h-108l7 48h115l62 227h52l-63 -227h139l63 227h52l-63 -227h108l-7 -48h-115l-43 -156h108l-7 -48h-115l-62 -229h-52l62 229h-139l-62 -229h-52zM358 277l43 156h-138l-43 -156h138z" />
    <glyph glyph-name="dollar" unicode="$" 
d="M325 314l-38 -272c75 3 141 63 152 143c6 41 -5 86 -73 113zM289 400l38 266c-65 -11 -129 -60 -140 -136c-9 -70 27 -102 86 -124zM222 -79l9 67c-72 0 -148 36 -185 105l63 39c24 -54 73 -87 130 -90l41 290l-68 26c-94 36 -97 124 -91 168c16 112 124 185 213 194
l10 67h48l-10 -67c67 0 131 -16 173 -89l-61 -40c-24 48 -71 75 -119 75l-40 -282l67 -24c57 -21 117 -73 102 -179c-16 -114 -122 -187 -225 -193l-9 -67h-48z" />
    <glyph glyph-name="percent" unicode="%" horiz-adv-x="815" 
d="M115 548c13 95 101 172 196 172s161 -77 148 -172s-101 -172 -196 -172s-161 77 -148 172zM169 548c-9 -67 36 -118 101 -118s126 51 135 118s-36 118 -101 118s-126 -51 -135 -118zM455 160c14 95 102 172 197 172s161 -77 147 -172c-13 -95 -101 -172 -196 -172
s-161 77 -148 172zM509 160c-9 -67 37 -118 102 -118s125 51 134 118c10 67 -36 118 -101 118s-125 -51 -135 -118zM157 -6l561 748l42 -28l-562 -748z" />
    <glyph glyph-name="ampersand" unicode="&#x26;" horiz-adv-x="704" 
d="M370 388l146 -182l128 184h68l-160 -226l137 -169h-89l-90 114c-68 -77 -139 -127 -238 -127c-120 0 -204 80 -187 206c16 110 103 159 192 209c-33 48 -72 103 -63 168c15 102 107 161 201 161c84 0 152 -60 139 -150c-14 -102 -99 -145 -184 -188zM402 666
c-59 0 -113 -41 -121 -100c-7 -49 31 -102 56 -137c60 29 140 67 150 142c8 56 -28 95 -85 95zM476 151l-167 204c-68 -38 -145 -81 -157 -165c-13 -90 50 -148 139 -148c74 0 138 51 185 109z" />
    <glyph glyph-name="quoteright" unicode="&#x2019;" horiz-adv-x="260" 
d="M129 480l96 228h73l-110 -228h-59z" />
    <glyph glyph-name="parenleft" unicode="(" horiz-adv-x="260" 
d="M300 732l46 -32c-102 -110 -168 -274 -188 -412c-21 -156 9 -284 72 -414l-51 -30c-75 129 -102 293 -81 444c23 158 97 321 202 444z" />
    <glyph glyph-name="parenright" unicode=")" horiz-adv-x="260" 
d="M41 -156l-46 32c102 110 168 274 187 412c22 156 -8 284 -71 414l51 30c75 -129 102 -293 80 -444c-22 -158 -96 -321 -201 -444z" />
    <glyph glyph-name="asterisk" unicode="*" horiz-adv-x="444" 
d="M347 708l-22 -152l151 48l8 -48l-150 -47l73 -122l-41 -29l-76 125l-107 -125l-36 29l109 122l-139 50l20 45l140 -48l22 152h48z" />
    <glyph glyph-name="plus" unicode="+" horiz-adv-x="666" 
d="M117 279l7 48h231l32 231h48l-32 -231h231l-7 -48h-231l-32 -231h-48l32 231h-231z" />
    <glyph glyph-name="comma" unicode="," horiz-adv-x="260" 
d="M31 -138l98 228h70l-109 -228h-59z" />
    <glyph glyph-name="hyphen" unicode="-" horiz-adv-x="333" 
d="M73 210l7 54h247l-7 -54h-247z" />
    <glyph glyph-name="period" unicode="." horiz-adv-x="260" 
d="M88 42c4 27 28 48 55 48s45 -21 41 -48s-28 -48 -55 -48s-45 21 -41 48z" />
    <glyph glyph-name="slash" unicode="/" horiz-adv-x="370" 
d="M6 -18l412 762l49 -18l-410 -762z" />
    <glyph glyph-name="zero" unicode="0" 
d="M76 354c21 154 86 366 285 366s204 -212 183 -366c-22 -154 -87 -366 -286 -366s-204 212 -182 366zM142 354c-16 -110 -26 -312 124 -312s196 202 212 312c15 110 26 312 -124 312s-197 -202 -212 -312z" />
    <glyph glyph-name="one" unicode="1" 
d="M261 0l88 624h-1l-143 -105l-31 46l196 143h51l-100 -708h-60z" />
    <glyph glyph-name="two" unicode="2" 
d="M41 0l10 70l305 281c54 49 116 107 127 183c12 82 -41 132 -122 132c-73 0 -134 -47 -159 -116l-69 7c39 109 129 163 238 163s195 -67 179 -181c-16 -110 -99 -184 -183 -258l-252 -227h372l-8 -54h-438z" />
    <glyph glyph-name="three" unicode="3" 
d="M59 127l68 21c16 -68 54 -106 134 -106c105 0 168 69 180 154c14 105 -77 146 -167 146h-26l9 60h30c76 0 163 37 176 134c11 75 -33 130 -112 130c-58 0 -112 -32 -146 -83l-53 32c50 73 125 105 206 105c108 0 189 -60 172 -182c-11 -77 -64 -142 -149 -164l-1 -2
c88 -16 138 -91 126 -181c-16 -112 -102 -203 -248 -203c-106 0 -176 43 -199 139z" />
    <glyph glyph-name="four" unicode="4" 
d="M329 0l24 174h-306l10 71l349 463h83l-68 -480h108l-8 -54h-108l-24 -174h-60zM361 228l58 414h-2l-308 -414h252z" />
    <glyph glyph-name="five" unicode="5" 
d="M551 708l-8 -54h-292l-35 -225c34 16 72 20 106 20c135 0 205 -107 187 -234c-21 -153 -154 -227 -258 -227s-166 46 -195 120l67 31c16 -53 72 -97 136 -97c65 0 168 56 184 169c14 102 -51 184 -152 184c-51 0 -103 -20 -147 -48l57 361h350z" />
    <glyph glyph-name="six" unicode="6" 
d="M461 708l-237 -312h2c26 20 75 30 109 30c126 0 203 -96 186 -218c-18 -128 -129 -220 -263 -220s-219 92 -201 220c11 74 56 134 91 181l237 319h76zM313 374c-92 0 -177 -74 -190 -166c-14 -98 45 -166 143 -166s175 68 189 166c13 92 -50 166 -142 166z" />
    <glyph glyph-name="seven" unicode="7" 
d="M543 708l-8 -54l-374 -654h-67l379 654h-340l8 54h402z" />
    <glyph glyph-name="eight" unicode="8" 
d="M141 536c16 110 110 184 220 184s184 -74 168 -184c-9 -66 -63 -137 -135 -156v-1c88 -19 125 -97 113 -182c-18 -127 -124 -209 -249 -209s-207 82 -189 209c12 85 71 163 163 182v1c-66 19 -100 90 -91 156zM207 536c-10 -71 34 -130 110 -130s136 59 146 130
c11 78 -36 130 -109 130s-136 -52 -147 -130zM135 197c-12 -85 38 -155 131 -155s163 70 175 155c13 93 -47 155 -132 155s-161 -62 -174 -155z" />
    <glyph glyph-name="nine" unicode="9" 
d="M159 0l237 312h-2c-27 -20 -75 -30 -109 -30c-126 0 -204 96 -187 218c18 128 129 220 263 220s219 -92 201 -220c-10 -74 -56 -134 -90 -181l-237 -319h-76zM307 334c92 0 176 74 189 166c14 98 -44 166 -142 166s-176 -68 -190 -166c-13 -92 51 -166 143 -166z" />
    <glyph glyph-name="colon" unicode=":" horiz-adv-x="260" 
d="M141 420c4 27 28 48 55 48s45 -21 41 -48s-28 -48 -55 -48s-45 21 -41 48zM88 42c4 27 28 48 55 48s45 -21 41 -48s-28 -48 -55 -48s-45 21 -41 48z" />
    <glyph glyph-name="semicolon" unicode=";" horiz-adv-x="260" 
d="M31 -138l98 228h70l-109 -228h-59zM141 420c4 27 28 48 55 48s45 -21 41 -48s-28 -48 -55 -48s-45 21 -41 48z" />
    <glyph glyph-name="less" unicode="&#x3c;" horiz-adv-x="666" 
d="M663 561l-7 -50l-477 -208l418 -208l-7 -50l-469 234l7 48z" />
    <glyph glyph-name="equal" unicode="=" horiz-adv-x="666" 
d="M127 351l7 48h510l-7 -48h-510zM107 207l7 48h510l-7 -48h-510z" />
    <glyph glyph-name="greater" unicode="&#x3e;" horiz-adv-x="666" 
d="M88 45l7 50l478 208l-419 208l7 50l469 -234l-7 -48z" />
    <glyph glyph-name="question" unicode="?" horiz-adv-x="463" 
d="M230 186l12 84c19 133 177 150 195 281c10 71 -27 121 -100 121c-70 0 -123 -47 -147 -116l-64 8c33 102 119 162 218 162c105 0 175 -62 160 -172c-24 -168 -185 -164 -205 -304l-9 -64h-60zM193 42c4 27 28 48 55 48s45 -21 41 -48s-28 -48 -55 -48s-45 21 -41 48z" />
    <glyph glyph-name="at" unicode="@" horiz-adv-x="800" 
d="M293 280c-7 -55 19 -95 71 -95c94 0 189 140 201 227c9 64 -11 102 -67 102c-101 0 -191 -139 -205 -234zM699 549l-138 -290c-10 -21 -16 -40 -17 -48c-2 -10 0 -26 22 -26c69 0 180 129 196 241c21 149 -101 252 -251 252c-182 0 -339 -153 -363 -323
c-25 -178 97 -325 274 -325c99 0 210 55 273 132h58c-77 -111 -212 -180 -338 -180c-217 0 -350 166 -321 373c29 208 216 371 422 371c195 0 324 -129 300 -300c-23 -166 -163 -295 -276 -295c-34 0 -58 22 -52 67h-2c-32 -33 -87 -67 -139 -67c-90 0 -125 67 -114 147
c20 139 131 290 277 290c44 0 85 -22 94 -83h2l33 64h60z" />
    <glyph glyph-name="A" unicode="A" horiz-adv-x="685" 
d="M5 0l409 708h68l198 -708h-74l-51 188h-375l-106 -188h-69zM540 248l-106 388l-219 -388h325z" />
    <glyph glyph-name="B" unicode="B" horiz-adv-x="630" 
d="M97 0l100 708h204c108 0 224 -27 201 -187c-10 -72 -61 -130 -147 -147l-1 -2c92 -7 148 -75 134 -174c-23 -163 -169 -198 -265 -198h-226zM254 648l-34 -246h137c137 0 173 75 179 119c14 99 -52 127 -136 127h-146zM211 342l-40 -282h151c155 0 193 86 200 136
c14 105 -66 146 -150 146h-161z" />
    <glyph glyph-name="C" unicode="C" horiz-adv-x="704" 
d="M647 152l49 -41c-80 -92 -178 -129 -282 -129c-216 0 -344 156 -313 372c30 216 202 372 418 372c96 0 178 -32 228 -111l-60 -45c-35 66 -105 96 -176 96c-185 0 -320 -136 -344 -312c-25 -176 71 -312 256 -312c71 0 164 34 224 110z" />
    <glyph glyph-name="D" unicode="D" horiz-adv-x="741" 
d="M88 0l100 708h219c368 0 340 -302 333 -354c-8 -52 -65 -354 -433 -354h-219zM245 648l-83 -588h136c188 0 347 91 376 294c28 203 -105 294 -293 294h-136z" />
    <glyph glyph-name="E" unicode="E" horiz-adv-x="593" 
d="M97 0l100 708h433l-9 -60h-367l-35 -252h344l-9 -60h-344l-39 -276h383l-8 -60h-449z" />
    <glyph glyph-name="F" unicode="F" horiz-adv-x="556" 
d="M97 0l100 708h424l-9 -60h-358l-35 -252h333l-9 -60h-333l-47 -336h-66z" />
    <glyph glyph-name="G" unicode="G" horiz-adv-x="778" 
d="M735 382l-48 -336c-88 -47 -181 -64 -273 -64c-216 0 -344 156 -313 372c30 216 202 372 418 372c105 0 186 -32 241 -98l-55 -50c-35 52 -117 88 -194 88c-185 0 -320 -136 -344 -312c-25 -176 71 -312 256 -312c76 0 145 10 204 42l33 238h-170l9 60h236z" />
    <glyph glyph-name="H" unicode="H" horiz-adv-x="722" 
d="M97 0l100 708h66l-44 -312h396l44 312h66l-100 -708h-66l47 336h-396l-47 -336h-66z" />
    <glyph glyph-name="I" unicode="I" horiz-adv-x="260" 
d="M97 0l100 708h66l-100 -708h-66z" />
    <glyph glyph-name="J" unicode="J" horiz-adv-x="482" 
d="M485 708l-71 -500c-12 -85 -43 -226 -226 -226c-103 0 -155 58 -163 145l68 12c6 -66 42 -97 104 -97c94 0 137 64 149 150l73 516h66z" />
    <glyph glyph-name="K" unicode="K" horiz-adv-x="611" 
d="M97 0l100 708h66l-44 -312h6l387 312h91l-404 -324l324 -384h-95l-308 366h-6l-51 -366h-66z" />
    <glyph glyph-name="L" unicode="L" horiz-adv-x="500" 
d="M97 0l100 708h66l-92 -648h330l-8 -60h-396z" />
    <glyph glyph-name="M" unicode="M" horiz-adv-x="889" 
d="M90 0l100 708h99l174 -594l342 594h94l-100 -708h-66l88 624h-2l-358 -624h-29l-186 624h-2l-88 -624h-66z" />
    <glyph glyph-name="N" unicode="N" horiz-adv-x="778" 
d="M97 0l100 708h85l343 -620h2l88 620h66l-100 -708h-85l-344 620h-2l-87 -620h-66z" />
    <glyph glyph-name="O" unicode="O" horiz-adv-x="834" 
d="M101 354c30 216 202 372 418 372s344 -156 314 -372c-31 -216 -203 -372 -419 -372s-344 156 -313 372zM167 354c-25 -176 71 -312 256 -312s319 136 344 312c24 176 -71 312 -256 312s-320 -136 -344 -312z" />
    <glyph glyph-name="P" unicode="P" horiz-adv-x="574" 
d="M97 0l100 708h204c100 0 222 -39 201 -187c-18 -128 -128 -185 -239 -185h-153l-47 -336h-66zM254 648l-35 -252h150c75 0 154 32 167 125c13 91 -60 127 -136 127h-146z" />
    <glyph glyph-name="Q" unicode="Q" horiz-adv-x="834" 
d="M821 60l-8 -60h-390c-197 0 -352 145 -321 363c29 205 191 363 410 363s337 -158 308 -363c-17 -124 -103 -259 -219 -301l-1 -2h221zM168 363c-23 -166 83 -303 261 -303c182 0 303 146 325 303c24 172 -66 303 -250 303s-312 -131 -336 -303z" />
    <glyph glyph-name="R" unicode="R" horiz-adv-x="593" 
d="M254 648l-35 -252h140c139 0 176 77 183 126s-9 126 -148 126h-140zM97 0l100 708h186c56 0 252 0 225 -186c-19 -135 -127 -172 -206 -182l158 -340h-75l-152 336h-123l-47 -336h-66z" />
    <glyph glyph-name="S" unicode="S" horiz-adv-x="556" 
d="M66 89l68 42c27 -59 80 -89 150 -89c89 0 166 54 178 139c28 198 -353 82 -315 351c17 126 135 194 254 194c77 0 141 -26 181 -89l-63 -41c-27 46 -67 70 -128 70c-85 0 -166 -44 -178 -134c-30 -213 353 -85 315 -351c-18 -128 -133 -199 -248 -199
c-93 0 -170 30 -214 107z" />
    <glyph glyph-name="T" unicode="T" horiz-adv-x="574" 
d="M254 0l91 648h-242l9 60h550l-9 -60h-242l-91 -648h-66z" />
    <glyph glyph-name="U" unicode="U" horiz-adv-x="684" 
d="M700 708l-62 -437c-21 -151 -106 -289 -299 -289s-238 138 -217 289l62 437h66l-60 -420c-14 -101 -7 -246 158 -246s212 145 226 246l60 420h66z" />
    <glyph glyph-name="V" unicode="V" horiz-adv-x="593" 
d="M261 0l-164 708h71l140 -621l318 621h70l-369 -708h-66z" />
    <glyph glyph-name="W" unicode="W" horiz-adv-x="944" 
d="M211 0l-106 708h68l87 -627h2l268 627h84l90 -627h2l265 627h68l-306 -708h-81l-90 630h-2l-268 -630h-81z" />
    <glyph glyph-name="X" unicode="X" horiz-adv-x="611" 
d="M1 0l318 372l-194 336h78l163 -288l242 288h79l-288 -336l211 -372h-82l-179 320l-269 -320h-79z" />
    <glyph glyph-name="Y" unicode="Y" horiz-adv-x="574" 
d="M254 0l43 305l-203 403h79l166 -336l267 336h74l-317 -403l-43 -305h-66z" />
    <glyph glyph-name="Z" unicode="Z" horiz-adv-x="556" 
d="M23 0l7 52l498 596h-408l9 60h493l-8 -54l-501 -594h428l-8 -60h-510z" />
    <glyph glyph-name="bracketleft" unicode="[" horiz-adv-x="260" 
d="M327 732l-7 -48h-90l-111 -792h90l-7 -48h-150l125 888h150z" />
    <glyph glyph-name="backslash" unicode="\" horiz-adv-x="370" 
d="M162 744l196 -762l-55 -18l-196 762z" />
    <glyph glyph-name="bracketright" unicode="]" horiz-adv-x="260" 
d="M14 -156l7 48h90l111 792h-90l7 48h150l-125 -888h-150z" />
    <glyph glyph-name="asciicircum" unicode="^" horiz-adv-x="666" 
d="M118 256l292 452h46l164 -452h-56l-139 398l-250 -398h-57z" />
    <glyph glyph-name="underscore" unicode="_" horiz-adv-x="500" 
d="M-18 -125l7 50h500l-7 -50h-500z" />
    <glyph glyph-name="quoteleft" unicode="&#x2018;" horiz-adv-x="260" 
d="M298 708l-97 -228h-72l109 228h60z" />
    <glyph glyph-name="a" unicode="a" horiz-adv-x="519" 
d="M482 307l-16 -113c-12 -90 -18 -141 -18 -194h-56c-1 23 1 49 5 75h-2c-43 -59 -97 -87 -175 -87c-79 0 -157 39 -143 137c19 141 186 155 277 155h70l4 28c12 80 -40 112 -114 112c-54 0 -102 -17 -148 -52l-30 41c50 42 126 65 186 65c112 0 177 -50 160 -167zM418 232
h-66c-100 0 -204 -25 -215 -104c-8 -57 43 -86 93 -86c128 0 172 82 183 159z" />
    <glyph glyph-name="b" unicode="b" horiz-adv-x="611" 
d="M67 0l106 756h60l-52 -375h2c46 64 129 93 198 93c142 0 228 -102 208 -243c-19 -141 -135 -243 -277 -243c-69 0 -144 29 -172 93h-2l-11 -81h-60zM153 231c-14 -104 58 -189 167 -189c113 0 195 85 209 189c15 104 -43 189 -156 189c-109 0 -205 -85 -220 -189z" />
    <glyph glyph-name="c" unicode="c" horiz-adv-x="481" 
d="M436 106l41 -38c-53 -54 -116 -80 -182 -80c-142 0 -228 102 -209 243c20 141 136 243 278 243c67 0 123 -29 160 -80l-53 -36c-29 38 -67 62 -115 62c-113 0 -195 -85 -210 -189c-14 -104 44 -189 157 -189c50 0 97 26 133 64z" />
    <glyph glyph-name="d" unicode="d" horiz-adv-x="611" 
d="M484 0l11 81h-2c-46 -64 -129 -93 -198 -93c-142 0 -228 102 -209 243c20 141 136 243 278 243c69 0 144 -29 172 -93h2l52 375h60l-106 -756h-60zM522 231c15 104 -57 189 -166 189c-113 0 -195 -85 -210 -189c-14 -104 44 -189 157 -189c109 0 205 85 219 189z" />
    <glyph glyph-name="e" unicode="e" horiz-adv-x="556" 
d="M461 124l39 -37c-57 -70 -132 -99 -214 -99c-141 0 -219 101 -199 244c19 138 130 242 265 242c142 0 201 -109 186 -216l-6 -42h-388c-7 -50 11 -174 151 -174c61 0 129 32 166 82zM152 270h328c11 82 -50 150 -139 150c-131 0 -186 -126 -189 -150z" />
    <glyph glyph-name="f" unicode="f" horiz-adv-x="296" 
d="M114 0l57 408h-96l8 54h96l21 151c17 119 101 155 160 155c29 0 50 -4 67 -12l-19 -52c-13 7 -30 10 -53 10c-55 0 -86 -40 -98 -123l-18 -129h108l-8 -54h-108l-57 -408h-60z" />
    <glyph glyph-name="g" unicode="g" horiz-adv-x="611" 
d="M609 462l-61 -432c-32 -230 -190 -270 -284 -270c-93 0 -177 36 -215 97l53 44c34 -59 98 -87 170 -87c183 0 208 160 216 212l9 64h-2c-43 -55 -109 -90 -188 -90c-136 0 -232 107 -214 237c19 130 145 237 281 237c79 0 135 -35 162 -90h2l11 78h60zM519 237
c15 101 -56 183 -157 183s-194 -82 -209 -183c-14 -101 57 -183 158 -183s194 82 208 183z" />
    <glyph glyph-name="h" unicode="h" horiz-adv-x="556" 
d="M80 0l106 756h60l-52 -375h2c31 51 96 93 171 93c144 0 162 -98 148 -199l-39 -275h-60l38 272c11 75 0 148 -95 148c-89 0 -169 -62 -187 -189l-32 -231h-60z" />
    <glyph glyph-name="i" unicode="i" horiz-adv-x="240" 
d="M90 0l65 462h60l-65 -462h-60zM166 645c3 25 26 45 51 45s42 -20 39 -45c-4 -25 -27 -45 -52 -45s-42 20 -38 45z" />
    <glyph glyph-name="j" unicode="j" horiz-adv-x="240" 
d="M215 462l-76 -543c-14 -95 -49 -159 -155 -159c-16 0 -31 3 -46 9l16 53c12 -5 24 -8 37 -8c65 0 80 48 87 100l77 548h60zM166 645c3 25 26 45 51 45s42 -20 39 -45c-4 -25 -27 -45 -52 -45s-42 20 -38 45z" />
    <glyph glyph-name="k" unicode="k" horiz-adv-x="481" 
d="M80 0l106 756h60l-71 -504l258 209h88l-268 -211l231 -250h-91l-219 244l-34 -244h-60z" />
    <glyph glyph-name="l" unicode="l" horiz-adv-x="240" 
d="M90 0l106 756h60l-106 -756h-60z" />
    <glyph glyph-name="m" unicode="m" horiz-adv-x="852" 
d="M80 0l47 332c4 34 10 106 13 130h60c-4 -34 -8 -72 -7 -81h3c31 51 96 93 171 93c61 0 112 -30 125 -100c38 69 107 100 171 100c144 0 162 -98 148 -199l-39 -275h-60l38 272c11 75 0 148 -95 148c-111 0 -153 -94 -162 -160l-37 -260h-60l39 278c12 85 -11 142 -76 142
c-89 0 -169 -62 -187 -189l-32 -231h-60z" />
    <glyph glyph-name="n" unicode="n" horiz-adv-x="556" 
d="M80 0l47 332c4 34 10 106 13 130h60c-4 -34 -8 -72 -7 -81h3c31 51 96 93 171 93c144 0 162 -98 148 -199l-39 -275h-60l38 272c11 75 0 148 -95 148c-89 0 -169 -62 -187 -189l-32 -231h-60z" />
    <glyph glyph-name="o" unicode="o" horiz-adv-x="594" 
d="M86 231c20 141 136 243 278 243s228 -102 208 -243c-19 -141 -135 -243 -277 -243s-228 102 -209 243zM146 231c-14 -104 44 -189 157 -189s195 85 209 189c15 104 -43 189 -156 189s-195 -85 -210 -189z" />
    <glyph glyph-name="p" unicode="p" horiz-adv-x="611" 
d="M35 -228l97 690h60l-11 -81h2c46 64 129 93 198 93c142 0 228 -102 208 -243c-19 -141 -135 -243 -277 -243c-69 0 -144 29 -172 93h-2l-43 -309h-60zM153 231c-14 -104 58 -189 167 -189c113 0 195 85 209 189c15 104 -43 189 -156 189c-109 0 -205 -85 -220 -189z" />
    <glyph glyph-name="q" unicode="q" horiz-adv-x="611" 
d="M452 -228l43 309h-2c-46 -64 -129 -93 -198 -93c-142 0 -228 102 -209 243c20 141 136 243 278 243c69 0 144 -29 172 -93h2l11 81h60l-97 -690h-60zM522 231c15 104 -57 189 -166 189c-113 0 -195 -85 -210 -189c-14 -104 44 -189 157 -189c109 0 205 85 219 189z" />
    <glyph glyph-name="r" unicode="r" horiz-adv-x="333" 
d="M80 0l47 332c4 34 10 106 13 130h60c-4 -34 -8 -72 -7 -81c37 54 91 93 160 93c12 0 22 -2 34 -5l-15 -59c-9 3 -17 4 -23 4c-104 0 -161 -72 -174 -162l-35 -252h-60z" />
    <glyph glyph-name="s" unicode="s" horiz-adv-x="426" 
d="M40 82l58 36c18 -49 69 -76 123 -76c52 0 110 32 118 85c18 127 -269 38 -244 214c13 90 101 133 177 133c75 0 129 -28 150 -87l-58 -32c-17 42 -46 65 -100 65c-43 0 -102 -26 -108 -74c-18 -125 270 -28 243 -215c-13 -95 -99 -143 -187 -143c-79 0 -145 30 -172 94z
" />
    <glyph glyph-name="t" unicode="t" horiz-adv-x="333" 
d="M371 462l-8 -54h-132l-42 -301c-6 -41 15 -65 55 -65c23 0 48 7 70 16l-2 -54c-24 -8 -58 -16 -81 -16c-86 0 -111 53 -102 119l42 301h-100l8 54h100l19 133h60l-19 -133h132z" />
    <glyph glyph-name="u" unicode="u" horiz-adv-x="556" 
d="M536 462l-47 -332c-5 -34 -10 -106 -13 -130h-60c4 34 8 72 7 81h-3c-31 -51 -96 -93 -171 -93c-144 0 -162 98 -148 199l39 275h60l-38 -272c-11 -75 0 -148 95 -148c89 0 169 62 186 189l33 231h60z" />
    <glyph glyph-name="v" unicode="v" horiz-adv-x="463" 
d="M204 0l-124 462h68l98 -397l206 397h61l-247 -462h-62z" />
    <glyph glyph-name="w" unicode="w" horiz-adv-x="704" 
d="M160 0l-80 462h66l58 -387h2l183 387h57l83 -387h2l163 387h60l-201 -462h-62l-85 378h-2l-182 -378h-62z" />
    <glyph glyph-name="x" unicode="x" horiz-adv-x="481" 
d="M6 0l227 250l-135 212h77l103 -175l152 175h75l-193 -212l163 -250h-78l-132 209l-187 -209h-72z" />
    <glyph glyph-name="y" unicode="y" horiz-adv-x="463" 
d="M513 462l-323 -605c-31 -59 -75 -97 -141 -97c-20 0 -39 4 -57 9l13 56c17 -5 35 -11 53 -11c44 0 69 41 88 77l57 107l-123 464h67l98 -389l204 389h64z" />
    <glyph glyph-name="z" unicode="z" horiz-adv-x="426" 
d="M27 0l5 36l329 372h-263l8 54h346l-5 -36l-328 -372h288l-8 -54h-372z" />
    <glyph glyph-name="braceleft" unicode="{" horiz-adv-x="333" 
d="M377 732l-7 -48h-23c-41 0 -62 -48 -69 -98l-19 -141c-14 -105 -79 -150 -92 -156l-1 -2c12 -7 64 -52 48 -156l-20 -142c-6 -49 1 -97 42 -97h23l-7 -48h-50c-56 0 -81 47 -71 121l21 146c11 78 7 153 -49 153l7 48c56 0 81 76 91 154l21 145c10 75 49 121 105 121h50z
" />
    <glyph glyph-name="bar" unicode="|" horiz-adv-x="344" 
d="M197 832h53v-1109h-53v1109z" />
    <glyph glyph-name="braceright" unicode="}" horiz-adv-x="333" 
d="M37 -156l7 48h23c41 0 62 48 69 98l19 141c14 105 78 150 92 156l1 2c-12 7 -64 52 -48 156l20 142c6 49 -1 97 -42 97h-23l7 48h50c56 0 81 -47 71 -121l-21 -146c-11 -78 -7 -153 49 -153l-7 -48c-56 0 -81 -76 -92 -154l-20 -145c-10 -75 -49 -121 -105 -121h-50z" />
    <glyph glyph-name="asciitilde" unicode="~" horiz-adv-x="666" 
d="M580 364l30 -32c-29 -46 -71 -90 -138 -90c-37 0 -75 20 -110 36c-36 17 -68 32 -93 32c-40 0 -70 -33 -98 -68l-29 32c27 42 70 90 137 90c37 0 75 -20 110 -36c36 -17 69 -32 94 -32c40 0 69 33 97 68z" />
    <glyph glyph-name="exclamdown" unicode="&#xa1;" horiz-adv-x="370" 
d="M124 -222l73 522h60l-73 -522h-60zM295 444c-3 -27 -27 -48 -54 -48s-45 21 -42 48c4 27 28 48 55 48s45 -21 41 -48z" />
    <glyph glyph-name="cent" unicode="&#xa2;" 
d="M263 47l52 370c-94 -14 -158 -96 -170 -184c-12 -87 32 -168 118 -186zM363 418l-53 -376c47 2 91 28 125 64l41 -38c-50 -51 -108 -78 -174 -80l-9 -69h-48l10 72c-120 17 -188 117 -170 242c17 125 115 221 237 238l10 72h48l-10 -71c65 -1 117 -30 153 -78l-53 -36
c-26 34 -59 56 -107 60z" />
    <glyph glyph-name="sterling" unicode="&#xa3;" 
d="M58 0l8 54h105l40 288h-95l8 54h95l16 117c13 90 84 207 239 207c53 0 99 -19 135 -56l-46 -48c-24 28 -56 50 -99 50c-101 0 -153 -86 -162 -146l-17 -124h165l-8 -54h-165l-40 -288h245l-8 -54h-416z" />
    <glyph glyph-name="fraction" unicode="&#x2044;" horiz-adv-x="168" 
d="M-168 -6l561 748l42 -28l-562 -748z" />
    <glyph glyph-name="yen" unicode="&#xa5;" 
d="M227 0l25 180h-170l7 48h170l11 77l-7 16h-161l7 48h134l-143 339h68l143 -344l244 344h65l-239 -339h134l-7 -48h-161l-11 -16l-11 -77h170l-7 -48h-170l-25 -180h-66z" />
    <glyph glyph-name="florin" unicode="&#x192;" 
d="M454 419l-7 -48h-117l-127 -391c-26 -77 -74 -124 -160 -124c-28 0 -56 6 -76 24l37 47c13 -12 32 -17 50 -17c53 0 80 39 103 111l113 350h-108l7 48h117l51 154c22 70 69 147 163 147c32 0 63 -11 86 -30l-38 -45c-16 12 -34 21 -55 21c-51 0 -80 -41 -96 -90l-51 -157
h108z" />
    <glyph glyph-name="section" unicode="&#xa7;" 
d="M244 227l95 -52c36 18 83 54 89 96c7 48 -31 81 -60 98l-69 41c-45 -14 -103 -42 -111 -95c-7 -51 22 -69 56 -88zM61 -24l65 30c14 -59 55 -90 117 -90c60 0 126 33 135 97c19 135 -282 114 -256 300c10 68 65 105 124 129c-44 29 -72 67 -64 127
c14 103 116 157 208 157c67 0 130 -27 147 -94l-63 -34c-13 45 -47 68 -95 68c-60 0 -122 -32 -131 -97c-18 -128 272 -113 247 -291c-9 -61 -53 -104 -107 -132c40 -26 65 -70 57 -123c-15 -107 -113 -167 -209 -167c-83 0 -155 37 -175 120z" />
    <glyph glyph-name="currency" unicode="&#xa4;" 
d="M34 142l65 55c-33 42 -47 96 -38 157c8 61 37 115 82 157l-49 55l39 37l49 -56c49 34 106 53 162 53s109 -19 148 -53l65 56l29 -37l-65 -55c33 -42 46 -96 38 -157c-9 -61 -37 -115 -82 -157l49 -55l-39 -37l-49 56c-49 -34 -107 -53 -163 -53s-108 19 -147 53l-65 -56z
M121 354c-15 -106 59 -192 162 -192s201 86 216 192c15 107 -59 192 -162 192s-201 -85 -216 -192z" />
    <glyph glyph-name="quotesingle" unicode="'" horiz-adv-x="260" 
d="M167 480l33 228h60l-33 -228h-60z" />
    <glyph glyph-name="quotedblleft" unicode="&#x201c;" 
d="M341 708l-96 -228h-73l110 228h59zM515 708l-96 -228h-73l110 228h59z" />
    <glyph glyph-name="guillemotleft" unicode="&#xab;" horiz-adv-x="481" 
d="M205 34l-109 203l166 203l38 -29l-141 -174l94 -176zM371 34l-109 203l166 203l38 -29l-141 -174l94 -176z" />
    <glyph glyph-name="guilsinglleft" unicode="&#x2039;" horiz-adv-x="315" 
d="M205 34l-109 203l166 203l38 -29l-141 -174l94 -176z" />
    <glyph glyph-name="guilsinglright" unicode="&#x203a;" horiz-adv-x="315" 
d="M177 440l108 -203l-165 -203l-38 29l140 174l-93 176z" />
    <glyph glyph-name="endash" unicode="&#x2013;" horiz-adv-x="500" 
d="M30 210l7 54h500l-7 -54h-500z" />
    <glyph glyph-name="dagger" unicode="&#x2020;" 
d="M212 -126l83 587h-192l7 48h192l28 199h60l-28 -199h192l-7 -48h-192l-83 -587h-60z" />
    <glyph glyph-name="daggerdbl" unicode="&#x2021;" 
d="M212 -126l28 199h-192l7 48h192l48 340h-192l7 48h192l28 199h60l-28 -199h192l-7 -48h-192l-48 -340h192l-7 -48h-192l-28 -199h-60z" />
    <glyph glyph-name="periodcentered" unicode="&#xb7;" horiz-adv-x="260" 
d="M127 318c3 27 27 48 54 48s45 -21 42 -48c-4 -27 -28 -48 -55 -48s-45 21 -41 48z" />
    <glyph glyph-name="paragraph" unicode="&#xb6;" horiz-adv-x="600" 
d="M249 -126l63 449c-117 0 -195 86 -180 189c18 126 111 196 251 196h227l-118 -834h-60l111 786h-123l-111 -786h-60z" />
    <glyph glyph-name="bullet" unicode="&#x2022;" horiz-adv-x="500" 
d="M123 354c14 98 104 177 202 177s166 -79 152 -177s-104 -177 -202 -177s-166 79 -152 177z" />
    <glyph glyph-name="quotesinglbase" unicode="&#x201a;" horiz-adv-x="260" 
d="M43 -138l95 228h73l-109 -228h-59z" />
    <glyph glyph-name="quotedblbase" unicode="&#x201e;" 
d="M260 -138l95 228h73l-109 -228h-59zM86 -138l95 228h73l-109 -228h-59z" />
    <glyph glyph-name="quotedblright" unicode="&#x201d;" 
d="M346 480l96 228h73l-110 -228h-59zM172 480l96 228h73l-110 -228h-59z" />
    <glyph glyph-name="guillemotright" unicode="&#xbb;" horiz-adv-x="481" 
d="M177 440l108 -203l-165 -203l-38 29l140 174l-93 176zM343 440l108 -203l-165 -203l-38 29l140 174l-93 176z" />
    <glyph glyph-name="ellipsis" unicode="&#x2026;" horiz-adv-x="1000" 
d="M125 42c4 27 28 48 55 48s45 -21 41 -48s-28 -48 -55 -48s-45 21 -41 48zM458 42c4 27 28 48 55 48s45 -21 41 -48s-28 -48 -55 -48s-45 21 -41 48zM791 42c4 27 28 48 55 48s45 -21 41 -48s-28 -48 -55 -48s-45 21 -41 48z" />
    <glyph glyph-name="perthousand" unicode="&#x2030;" horiz-adv-x="981" 
d="M326 141c12 84 90 153 174 153s144 -69 132 -153s-91 -153 -175 -153s-143 69 -131 153zM374 141c-8 -58 32 -105 90 -105s112 47 120 105s-32 105 -90 105s-112 -47 -120 -105zM669 141c12 84 90 153 174 153s144 -69 132 -153s-91 -153 -175 -153s-143 69 -131 153z
M717 141c-8 -58 32 -105 90 -105s112 47 120 105s-32 105 -90 105s-112 -47 -120 -105zM106 567c11 84 90 153 174 153s143 -69 132 -153c-12 -84 -91 -153 -175 -153s-143 69 -131 153zM154 567c-8 -58 32 -105 90 -105s112 47 120 105s-33 105 -91 105s-111 -47 -119 -105
zM65 -6l561 748l42 -28l-562 -748z" />
    <glyph glyph-name="questiondown" unicode="&#xbf;" horiz-adv-x="463" 
d="M301 300l-12 -84c-18 -133 -177 -150 -195 -281c-10 -71 27 -121 100 -121c70 0 123 47 147 116l64 -8c-32 -102 -119 -162 -218 -162c-105 0 -175 62 -160 172c24 168 185 164 205 304l9 64h60zM338 444c-3 -27 -27 -48 -54 -48s-45 21 -42 48c4 27 28 48 55 48
s45 -21 41 -48z" />
    <glyph glyph-name="grave" unicode="`" horiz-adv-x="240" 
d="M174 708l83 -144h-50l-113 144h80z" />
    <glyph glyph-name="acute" unicode="&#xb4;" horiz-adv-x="240" 
d="M141 564l125 144h80l-155 -144h-50z" />
    <glyph glyph-name="circumflex" unicode="&#x2c6;" horiz-adv-x="240" 
d="M56 564l129 144h70l87 -144h-65l-66 108l-96 -108h-59z" />
    <glyph glyph-name="tilde" unicode="&#x2dc;" horiz-adv-x="240" 
d="M82 581h-36c6 23 19 49 36 68c18 20 41 34 68 34s50 -13 71 -25c21 -11 41 -23 60 -23c29 0 47 24 55 48h36c-13 -49 -45 -102 -98 -102c-26 0 -50 13 -72 24s-43 24 -63 24c-31 0 -48 -24 -57 -48z" />
    <glyph glyph-name="macron" unicode="&#xaf;" horiz-adv-x="240" 
d="M344 654l-7 -48h-264l7 48h264z" />
    <glyph glyph-name="breve" unicode="&#x2d8;" horiz-adv-x="240" 
d="M76 708h42c0 -53 37 -78 89 -78c59 0 93 20 115 78h42c-21 -80 -85 -126 -164 -126c-78 0 -132 46 -124 126z" />
    <glyph glyph-name="dotaccent" unicode="&#x2d9;" horiz-adv-x="240" 
d="M167 652c3 27 27 48 54 48s45 -21 42 -48c-4 -27 -28 -48 -55 -48s-45 21 -41 48z" />
    <glyph glyph-name="dieresis" unicode="&#xa8;" horiz-adv-x="240" 
d="M69 652c3 27 27 48 54 48s45 -21 42 -48c-4 -27 -28 -48 -55 -48s-45 21 -41 48zM259 652c3 27 27 48 54 48s45 -21 42 -48c-4 -27 -28 -48 -55 -48s-45 21 -41 48z" />
    <glyph glyph-name="ring" unicode="&#x2da;" horiz-adv-x="240" 
d="M118 649c7 51 56 95 108 95s85 -46 78 -96c-7 -49 -54 -94 -105 -94c-52 0 -88 44 -81 95zM268 649c5 33 -15 59 -48 59s-61 -27 -66 -60s17 -58 49 -58c33 0 61 26 65 59z" />
    <glyph glyph-name="cedilla" unicode="&#xb8;" horiz-adv-x="240" 
d="M171 0l-56 -64l2 -2c9 5 19 7 32 7c43 0 79 -24 73 -72c-9 -60 -72 -85 -124 -85c-33 0 -64 7 -92 21l18 32c21 -12 45 -17 74 -17c26 0 64 12 69 43c4 30 -24 42 -50 42c-17 0 -32 -3 -45 -8l-14 15l75 88h38z" />
    <glyph glyph-name="hungarumlaut" unicode="&#x2dd;" horiz-adv-x="240" 
d="M68 564l125 144h80l-155 -144h-50zM214 564l125 144h80l-155 -144h-50z" />
    <glyph glyph-name="ogonek" unicode="&#x2db;" horiz-adv-x="240" 
d="M148 -145l13 -38c-23 -19 -52 -33 -89 -33c-53 0 -88 31 -81 82c8 55 62 102 107 134h45c-32 -22 -83 -70 -90 -121c-4 -30 8 -47 36 -47s48 13 59 23z" />
    <glyph glyph-name="caron" unicode="&#x2c7;" horiz-adv-x="240" 
d="M359 708l-127 -144h-70l-88 144h62l66 -114l103 114h54z" />
    <glyph glyph-name="emdash" unicode="&#x2014;" horiz-adv-x="1000" 
d="M30 210l7 54h1000l-7 -54h-1000z" />
    <glyph glyph-name="AE" unicode="&#xc6;" horiz-adv-x="926" 
d="M-5 0l561 708h403l-9 -60h-293l-35 -252h276l-9 -60h-276l-39 -276h301l-8 -60h-367l26 188h-312l-149 -188h-70zM535 248l56 400h-12l-317 -400h273z" />
    <glyph glyph-name="ordfeminine" unicode="&#xaa;" horiz-adv-x="337" 
d="M271 602h64l1 9c4 43 -10 67 -74 67c-40 0 -67 -12 -99 -35l-20 38c35 26 80 39 136 39c79 0 116 -28 105 -109l-11 -80c-5 -34 -10 -69 -10 -101h-49c-2 14 2 29 3 46h-2c-28 -37 -65 -52 -111 -52c-57 0 -107 23 -99 81c11 78 94 97 166 97zM329 560h-38
c-57 0 -132 -9 -138 -53c-3 -24 30 -41 66 -41c70 0 104 52 109 87z" />
    <glyph glyph-name="Lslash" unicode="&#x141;" horiz-adv-x="500" 
d="M97 0l32 231l-81 -64l10 65l80 63l59 413h66l-51 -358l243 189l-9 -62l-243 -189l-32 -228h330l-8 -60h-396z" />
    <glyph glyph-name="Oslash" unicode="&#xd8;" horiz-adv-x="834" 
d="M70 15l88 82c-50 65 -72 154 -57 257c30 216 202 372 418 372c93 0 169 -29 224 -79l85 81l30 -31l-86 -81c52 -65 76 -156 61 -262c-31 -216 -203 -372 -419 -372c-95 0 -172 30 -227 83l-86 -81zM208 144l485 457c-44 41 -105 65 -182 65c-185 0 -320 -136 -344 -312
c-12 -83 3 -156 41 -210zM722 569l-486 -458c43 -44 107 -69 187 -69c185 0 319 136 344 312c12 85 -5 161 -45 215z" />
    <glyph glyph-name="OE" unicode="&#x152;" horiz-adv-x="944" 
d="M628 336l-39 -276h304l-8 -60h-472c-190 0 -334 140 -304 354c33 234 238 354 436 354h432l-9 -60h-296l-35 -252h279l-9 -60h-279zM523 60l83 588h-78c-140 0 -324 -88 -353 -294c-31 -220 148 -294 264 -294h84z" />
    <glyph glyph-name="ordmasculine" unicode="&#xba;" horiz-adv-x="386" 
d="M114 572c13 87 83 148 179 148c92 0 152 -58 139 -148c-12 -87 -88 -148 -180 -148c-96 0 -150 61 -138 148zM162 572c-7 -56 30 -106 95 -106c64 0 119 48 127 106c9 60 -29 106 -97 106c-64 0 -117 -50 -125 -106z" />
    <glyph glyph-name="ae" unicode="&#xe6;" horiz-adv-x="852" 
d="M430 270l1 9c13 90 -23 141 -122 141c-54 0 -102 -17 -148 -52l-30 41c50 42 126 65 186 65c84 0 141 -23 166 -96c43 63 119 96 183 96c112 0 199 -65 177 -223l-5 -35h-356c-17 -95 28 -174 136 -174c57 0 108 28 143 74l43 -34c-62 -68 -119 -94 -204 -94
c-81 0 -144 34 -166 114c-50 -82 -131 -114 -219 -114c-79 0 -157 39 -143 137c8 59 54 145 243 145h115zM422 216h-117c-141 0 -169 -60 -173 -88c-8 -57 43 -86 93 -86c124 0 184 79 197 174zM490 270h296c11 83 -24 150 -126 150c-92 0 -159 -68 -170 -150z" />
    <glyph glyph-name="dotlessi" unicode="&#x131;" horiz-adv-x="240" 
d="M90 0l65 462h60l-65 -462h-60z" />
    <glyph glyph-name="lslash" unicode="&#x142;" horiz-adv-x="240" 
d="M90 0l46 324l-96 -85l9 67l96 85l51 365h60l-43 -305l96 86l-9 -67l-96 -85l-54 -385h-60z" />
    <glyph glyph-name="oslash" unicode="&#xf8;" horiz-adv-x="594" 
d="M39 2l80 71c-30 42 -41 96 -33 158c20 141 136 243 278 243c62 0 113 -20 149 -53l79 70l28 -29l-81 -71c30 -41 42 -97 33 -160c-19 -141 -135 -243 -277 -243c-63 0 -115 20 -150 54l-78 -69zM166 115l300 265c-26 25 -63 40 -110 40c-113 0 -195 -85 -210 -189
c-6 -44 1 -85 20 -116zM492 349l-300 -266c25 -26 63 -41 111 -41c113 0 195 85 209 189c7 46 0 88 -20 118z" />
    <glyph glyph-name="oe" unicode="&#x153;" horiz-adv-x="907" 
d="M545 270h296c11 83 -24 150 -126 150c-92 0 -159 -68 -170 -150zM893 216h-356c-17 -95 28 -174 136 -174c57 0 108 28 143 74l43 -34c-62 -68 -119 -94 -204 -94c-81 0 -144 34 -166 114h-2c-48 -74 -127 -114 -215 -114c-132 0 -215 102 -196 243
c20 141 133 243 265 243c133 0 170 -83 182 -115c31 54 96 115 198 115c112 0 199 -65 177 -223zM136 231c-13 -99 40 -189 146 -189s183 85 197 189c15 104 -38 189 -144 189s-185 -90 -199 -189z" />
    <glyph glyph-name="germandbls" unicode="&#xdf;" horiz-adv-x="593" 
d="M323 404l7 54h15c80 0 142 50 154 129c11 83 -38 127 -113 127c-109 0 -158 -87 -172 -189l-74 -525h-60l75 534c19 136 107 234 244 234c104 0 176 -64 160 -179c-11 -78 -58 -136 -121 -154v-2c72 -14 151 -57 129 -212c-20 -145 -136 -227 -279 -227
c-16 0 -31 1 -46 5l8 58c16 -7 34 -9 52 -9c107 0 190 67 205 172c18 126 -64 184 -163 184h-21z" />
    <glyph glyph-name="onesuperior" unicode="&#xb9;" horiz-adv-x="338" 
d="M218 289l52 371l-95 -66l-20 34l122 86h54l-59 -425h-54z" />
    <glyph glyph-name="logicalnot" unicode="&#xac;" horiz-adv-x="666" 
d="M559 134l30 217h-462l7 48h510l-37 -265h-48z" />
    <glyph glyph-name="mu" unicode="&#xb5;" horiz-adv-x="556" 
d="M536 462l-47 -332c-5 -34 -10 -106 -13 -130h-60c4 34 8 72 7 81h-3c-31 -51 -96 -93 -171 -93c-54 0 -88 14 -111 38l-36 -254h-59l97 690h60l-38 -272c-11 -75 0 -148 95 -148c89 0 169 62 186 189l33 231h60z" />
    <glyph glyph-name="trademark" unicode="&#x2122;" horiz-adv-x="990" 
d="M259 296l51 364h-133l7 48h320l-7 -48h-133l-51 -364h-54zM520 296l58 412h86l83 -328l176 328h83l-58 -412h-54l50 361h-2l-192 -361h-32l-92 361h-2l-50 -361h-54z" />
    <glyph glyph-name="Eth" unicode="&#xd0;" horiz-adv-x="741" 
d="M245 648l-35 -252h258l-8 -54h-258l-40 -282h136c188 0 347 91 376 294c28 203 -105 294 -293 294h-136zM88 0l48 342h-78l8 54h78l44 312h219c368 0 340 -302 333 -354c-8 -52 -65 -354 -433 -354h-219z" />
    <glyph glyph-name="onehalf" unicode="&#xbd;" horiz-adv-x="778" 
d="M179 289l52 371l-95 -66l-20 34l122 86h54l-59 -425h-54zM105 -6l561 748l42 -28l-562 -748zM458 0l6 43l196 168c41 35 74 63 80 109c5 37 -22 63 -75 63c-51 0 -80 -29 -94 -59l-51 4c29 77 103 103 154 103c77 0 130 -40 120 -109c-9 -65 -60 -108 -113 -153
l-144 -121h220l-7 -48h-292z" />
    <glyph glyph-name="plusminus" unicode="&#xb1;" horiz-adv-x="666" 
d="M124 327l7 48h228l25 183h48l-25 -183h234l-7 -48h-234l-26 -183h-48l26 183h-228zM89 48l6 48h502l-6 -48h-502z" />
    <glyph glyph-name="Thorn" unicode="&#xde;" horiz-adv-x="574" 
d="M97 0l100 708h65l-22 -156h139c100 0 222 -39 201 -187c-18 -128 -128 -185 -239 -185h-153l-25 -180h-66zM232 492l-35 -252h150c75 0 154 32 167 125c13 91 -60 127 -136 127h-146z" />
    <glyph glyph-name="onequarter" unicode="&#xbc;" horiz-adv-x="778" 
d="M624 0l14 102h-190l7 45l224 277h59l-39 -274h64l-7 -48h-64l-14 -102h-54zM645 150l28 202h-2l-162 -202h136zM187 289l52 371l-95 -66l-20 34l122 86h54l-59 -425h-54zM114 -6l561 748l42 -28l-562 -748z" />
    <glyph glyph-name="divide" unicode="&#xf7;" horiz-adv-x="666" 
d="M117 279l7 48h510l-7 -48h-510zM346 457c4 28 30 51 58 51s48 -23 44 -51s-30 -51 -58 -51s-48 23 -44 51zM303 149c4 29 30 50 58 51c28 0 48 -23 44 -51s-30 -51 -58 -51s-48 23 -44 51z" />
    <glyph glyph-name="brokenbar" unicode="&#xa6;" horiz-adv-x="344" 
d="M197 749h52v-388h-52v388zM197 194h52v-387h-52v387z" />
    <glyph glyph-name="degree" unicode="&#xb0;" horiz-adv-x="400" 
d="M261 432c-80 0 -135 64 -124 145c11 80 84 143 164 143s135 -63 124 -143c-11 -81 -84 -145 -164 -145zM267 480c53 0 103 43 110 96s-30 96 -83 96s-102 -43 -109 -96s29 -96 82 -96z" />
    <glyph glyph-name="thorn" unicode="&#xfe;" horiz-adv-x="611" 
d="M35 -228l138 984h60l-52 -375h2c46 64 129 93 198 93c142 0 228 -102 208 -243c-19 -141 -135 -243 -277 -243c-69 0 -144 29 -172 93h-2l-43 -309h-60zM153 231c-14 -104 58 -189 167 -189c113 0 195 85 209 189c15 104 -43 189 -156 189c-109 0 -205 -85 -220 -189z
" />
    <glyph glyph-name="threequarters" unicode="&#xbe;" horiz-adv-x="778" 
d="M640 0l14 102h-190l7 45l224 277h59l-39 -274h64l-7 -48h-64l-14 -102h-54zM659 150l28 202h-2l-162 -202h136zM190 488l6 48h23c42 3 98 19 106 75c5 34 -22 61 -69 61c-38 0 -72 -20 -95 -50l-35 25c33 43 80 73 137 73c73 0 125 -42 116 -108c-6 -46 -48 -84 -96 -99
v-2c57 -8 86 -53 79 -107c-11 -75 -80 -121 -162 -121c-65 0 -112 26 -128 89l51 18c9 -36 32 -59 84 -59c45 0 96 36 101 76c9 63 -42 81 -101 81h-17zM165 -6l561 748l42 -28l-562 -748z" />
    <glyph glyph-name="twosuperior" unicode="&#xb2;" horiz-adv-x="338" 
d="M64 289l6 43l195 168c41 35 74 63 81 109c5 37 -23 63 -76 63c-51 0 -80 -29 -94 -59l-50 4c29 77 102 103 153 103c77 0 131 -40 121 -109c-9 -65 -60 -108 -114 -153l-144 -121h220l-6 -48h-292z" />
    <glyph glyph-name="registered" unicode="&#xae;" horiz-adv-x="800" 
d="M365 329l-26 -188h-54l60 429h165c97 0 129 -42 118 -119c-11 -79 -65 -112 -125 -122l102 -188h-61l-102 188h-77zM392 522l-20 -145h69c59 0 123 3 133 74c8 55 -40 71 -86 71h-96zM78 354c29 205 219 372 424 372s349 -167 320 -372s-220 -372 -425 -372
s-348 167 -319 372zM132 354c-25 -176 97 -318 273 -318s338 142 363 318c24 176 -98 318 -274 318s-338 -142 -362 -318z" />
    <glyph glyph-name="minus" unicode="&#x2212;" horiz-adv-x="666" 
d="M117 279l7 48h510l-7 -48h-510z" />
    <glyph glyph-name="eth" unicode="&#xf0;" horiz-adv-x="594" 
d="M234 604l112 56c-27 28 -61 60 -83 78l56 30c27 -22 61 -54 84 -80l112 56l31 -30l-114 -57c51 -53 173 -193 144 -401c-23 -166 -139 -268 -281 -268s-228 102 -209 243c20 141 136 243 278 243c56 0 103 -16 141 -55l2 2c-37 89 -89 163 -132 207l-115 -57zM146 231
c-14 -104 44 -189 157 -189s195 85 209 189c15 104 -43 189 -156 189s-195 -85 -210 -189z" />
    <glyph glyph-name="multiply" unicode="&#xd7;" horiz-adv-x="666" 
d="M211 535l170 -198l227 198l28 -34l-226 -198l170 -198l-39 -34l-169 199l-227 -199l-30 34l228 198l-171 198z" />
    <glyph glyph-name="threesuperior" unicode="&#xb3;" horiz-adv-x="338" 
d="M196 488l6 48h23c41 0 98 19 106 75c5 34 -22 61 -69 61c-38 0 -72 -20 -95 -50l-35 25c33 43 80 73 137 73c73 0 125 -42 116 -108c-6 -46 -48 -84 -96 -99v-2c57 -8 86 -53 79 -107c-11 -75 -80 -121 -162 -121c-65 0 -112 26 -127 89l50 18c9 -36 32 -59 84 -59
c45 0 96 36 101 76c9 63 -42 81 -101 81h-17z" />
    <glyph glyph-name="copyright" unicode="&#xa9;" horiz-adv-x="800" 
d="M655 431h-54c-5 54 -43 103 -116 104c-102 0 -172 -83 -186 -181s33 -181 135 -181c73 0 127 49 145 104h54c-27 -98 -112 -152 -206 -152c-136 0 -201 97 -182 229c18 132 110 229 246 229c94 0 164 -54 164 -152zM78 354c29 205 219 372 424 372s349 -167 320 -372
s-220 -372 -425 -372s-348 167 -319 372zM132 354c-25 -176 97 -318 273 -318s338 142 363 318c24 176 -98 318 -274 318s-338 -142 -362 -318z" />
    <glyph glyph-name="Aacute" unicode="&#xc1;" horiz-adv-x="685" 
d="M5 0l409 708h68l198 -708h-74l-51 188h-375l-106 -188h-69zM540 248l-106 388l-219 -388h325zM391 752l124 144h80l-154 -144h-50z" />
    <glyph glyph-name="Acircumflex" unicode="&#xc2;" horiz-adv-x="685" 
d="M5 0l409 708h68l198 -708h-74l-51 188h-375l-106 -188h-69zM540 248l-106 388l-219 -388h325zM306 752l128 144h70l88 -144h-65l-66 108l-96 -108h-59z" />
    <glyph glyph-name="Adieresis" unicode="&#xc4;" horiz-adv-x="685" 
d="M5 0l409 708h68l198 -708h-74l-51 188h-375l-106 -188h-69zM540 248l-106 388l-219 -388h325zM318 840c4 27 28 48 55 48s45 -21 41 -48s-28 -48 -55 -48s-45 21 -41 48zM508 840c4 27 28 48 55 48s45 -21 41 -48s-28 -48 -55 -48s-45 21 -41 48z" />
    <glyph glyph-name="Agrave" unicode="&#xc0;" horiz-adv-x="685" 
d="M5 0l409 708h68l198 -708h-74l-51 188h-375l-106 -188h-69zM540 248l-106 388l-219 -388h325zM423 896l84 -144h-50l-114 144h80z" />
    <glyph glyph-name="Aring" unicode="&#xc5;" horiz-adv-x="685" 
d="M5 0l409 708h68l198 -708h-74l-51 188h-375l-106 -188h-69zM540 248l-106 388l-219 -388h325zM368 837c7 51 55 95 107 95s86 -46 78 -96c-6 -49 -54 -94 -105 -94c-52 0 -88 44 -80 95zM518 837c4 33 -16 59 -49 59s-61 -27 -66 -60c-4 -33 17 -58 49 -58
c33 0 61 26 66 59z" />
    <glyph glyph-name="Atilde" unicode="&#xc3;" horiz-adv-x="685" 
d="M5 0l409 708h68l198 -708h-74l-51 188h-375l-106 -188h-69zM540 248l-106 388l-219 -388h325zM331 769h-36c6 23 19 49 37 68c17 20 40 34 67 34s51 -13 72 -25c20 -11 41 -23 60 -23c29 0 46 24 54 48h36c-6 -24 -18 -50 -33 -69c-17 -20 -38 -33 -65 -33
c-26 0 -49 13 -72 24c-22 11 -42 24 -62 24c-31 0 -49 -24 -58 -48z" />
    <glyph glyph-name="Ccedilla" unicode="&#xc7;" horiz-adv-x="704" 
d="M647 152l49 -41c-80 -92 -178 -129 -282 -129c-9 0 -18 0 -26 1l-41 -47l2 -2c9 5 19 7 32 7c43 0 79 -24 73 -72c-9 -60 -72 -85 -124 -85c-33 0 -64 7 -92 21l18 32c21 -12 45 -17 74 -17c26 0 64 12 69 43c4 30 -24 42 -50 42c-17 0 -32 -3 -45 -8l-14 15l64 75
c-178 25 -281 172 -253 367c30 216 202 372 418 372c96 0 178 -32 228 -111l-60 -45c-35 66 -105 96 -176 96c-185 0 -320 -136 -344 -312c-25 -176 71 -312 256 -312c71 0 164 34 224 110z" />
    <glyph glyph-name="Eacute" unicode="&#xc9;" horiz-adv-x="593" 
d="M97 0l100 708h433l-9 -60h-367l-35 -252h344l-9 -60h-344l-39 -276h383l-8 -60h-449zM345 752l124 144h80l-154 -144h-50z" />
    <glyph glyph-name="Ecircumflex" unicode="&#xca;" horiz-adv-x="593" 
d="M97 0l100 708h433l-9 -60h-367l-35 -252h344l-9 -60h-344l-39 -276h383l-8 -60h-449zM260 752l128 144h70l88 -144h-65l-66 108l-96 -108h-59z" />
    <glyph glyph-name="Edieresis" unicode="&#xcb;" horiz-adv-x="593" 
d="M97 0l100 708h433l-9 -60h-367l-35 -252h344l-9 -60h-344l-39 -276h383l-8 -60h-449zM272 840c4 27 28 48 55 48s45 -21 41 -48s-28 -48 -55 -48s-45 21 -41 48zM462 840c4 27 28 48 55 48s45 -21 41 -48s-28 -48 -55 -48s-45 21 -41 48z" />
    <glyph glyph-name="Egrave" unicode="&#xc8;" horiz-adv-x="593" 
d="M97 0l100 708h433l-9 -60h-367l-35 -252h344l-9 -60h-344l-39 -276h383l-8 -60h-449zM377 896l84 -144h-50l-114 144h80z" />
    <glyph glyph-name="Iacute" unicode="&#xcd;" horiz-adv-x="260" 
d="M97 0l100 708h66l-100 -708h-66zM178 752l124 144h80l-154 -144h-50z" />
    <glyph glyph-name="Icircumflex" unicode="&#xce;" horiz-adv-x="260" 
d="M97 0l100 708h66l-100 -708h-66zM93 752l128 144h70l88 -144h-65l-66 108l-96 -108h-59z" />
    <glyph glyph-name="Idieresis" unicode="&#xcf;" horiz-adv-x="260" 
d="M97 0l100 708h66l-100 -708h-66zM105 840c4 27 28 48 55 48s45 -21 41 -48s-28 -48 -55 -48s-45 21 -41 48zM295 840c4 27 28 48 55 48s45 -21 41 -48s-28 -48 -55 -48s-45 21 -41 48z" />
    <glyph glyph-name="Igrave" unicode="&#xcc;" horiz-adv-x="260" 
d="M97 0l100 708h66l-100 -708h-66zM210 896l84 -144h-50l-114 144h80z" />
    <glyph glyph-name="Ntilde" unicode="&#xd1;" horiz-adv-x="778" 
d="M97 0l100 708h85l343 -620h2l88 620h66l-100 -708h-85l-344 620h-2l-87 -620h-66zM377 769h-36c6 23 19 49 37 68c17 20 40 34 67 34s51 -13 72 -25c20 -11 41 -23 60 -23c29 0 46 24 54 48h36c-6 -24 -18 -50 -33 -69c-17 -20 -38 -33 -65 -33c-26 0 -49 13 -72 24
c-22 11 -42 24 -62 24c-31 0 -49 -24 -58 -48z" />
    <glyph glyph-name="Oacute" unicode="&#xd3;" horiz-adv-x="834" 
d="M101 354c30 216 202 372 418 372s344 -156 314 -372c-31 -216 -203 -372 -419 -372s-344 156 -313 372zM167 354c-25 -176 71 -312 256 -312s319 136 344 312c24 176 -71 312 -256 312s-320 -136 -344 -312zM465 752l124 144h80l-154 -144h-50z" />
    <glyph glyph-name="Ocircumflex" unicode="&#xd4;" horiz-adv-x="834" 
d="M101 354c30 216 202 372 418 372s344 -156 314 -372c-31 -216 -203 -372 -419 -372s-344 156 -313 372zM167 354c-25 -176 71 -312 256 -312s319 136 344 312c24 176 -71 312 -256 312s-320 -136 -344 -312zM380 752l128 144h70l88 -144h-65l-66 108l-96 -108h-59z" />
    <glyph glyph-name="Odieresis" unicode="&#xd6;" horiz-adv-x="834" 
d="M101 354c30 216 202 372 418 372s344 -156 314 -372c-31 -216 -203 -372 -419 -372s-344 156 -313 372zM167 354c-25 -176 71 -312 256 -312s319 136 344 312c24 176 -71 312 -256 312s-320 -136 -344 -312zM392 840c4 27 28 48 55 48s45 -21 41 -48s-28 -48 -55 -48
s-45 21 -41 48zM582 840c4 27 28 48 55 48s45 -21 41 -48s-28 -48 -55 -48s-45 21 -41 48z" />
    <glyph glyph-name="Ograve" unicode="&#xd2;" horiz-adv-x="834" 
d="M101 354c30 216 202 372 418 372s344 -156 314 -372c-31 -216 -203 -372 -419 -372s-344 156 -313 372zM167 354c-25 -176 71 -312 256 -312s319 136 344 312c24 176 -71 312 -256 312s-320 -136 -344 -312zM497 896l84 -144h-50l-114 144h80z" />
    <glyph glyph-name="Otilde" unicode="&#xd5;" horiz-adv-x="834" 
d="M101 354c30 216 202 372 418 372s344 -156 314 -372c-31 -216 -203 -372 -419 -372s-344 156 -313 372zM167 354c-25 -176 71 -312 256 -312s319 136 344 312c24 176 -71 312 -256 312s-320 -136 -344 -312zM405 769h-36c6 23 19 49 37 68c17 20 40 34 67 34
s51 -13 72 -25c20 -11 41 -23 60 -23c29 0 46 24 54 48h36c-6 -24 -18 -50 -33 -69c-17 -20 -38 -33 -65 -33c-26 0 -49 13 -72 24c-22 11 -42 24 -62 24c-31 0 -49 -24 -58 -48z" />
    <glyph glyph-name="Scaron" unicode="&#x160;" horiz-adv-x="556" 
d="M66 89l68 42c27 -59 80 -89 150 -89c89 0 166 54 178 139c28 198 -353 82 -315 351c17 126 135 194 254 194c77 0 141 -26 181 -89l-63 -41c-27 46 -67 70 -128 70c-85 0 -166 -44 -178 -134c-30 -213 353 -85 315 -351c-18 -128 -133 -199 -248 -199
c-93 0 -170 30 -214 107zM543 896l-126 -144h-70l-89 144h62l67 -114l102 114h54z" />
    <glyph glyph-name="Uacute" unicode="&#xda;" horiz-adv-x="684" 
d="M700 708l-62 -437c-21 -151 -106 -289 -299 -289s-238 138 -217 289l62 437h66l-60 -420c-14 -101 -7 -246 158 -246s212 145 226 246l60 420h66zM390 752l124 144h80l-154 -144h-50z" />
    <glyph glyph-name="Ucircumflex" unicode="&#xdb;" horiz-adv-x="684" 
d="M700 708l-62 -437c-21 -151 -106 -289 -299 -289s-238 138 -217 289l62 437h66l-60 -420c-14 -101 -7 -246 158 -246s212 145 226 246l60 420h66zM305 752l128 144h70l88 -144h-65l-66 108l-96 -108h-59z" />
    <glyph glyph-name="Udieresis" unicode="&#xdc;" horiz-adv-x="684" 
d="M700 708l-62 -437c-21 -151 -106 -289 -299 -289s-238 138 -217 289l62 437h66l-60 -420c-14 -101 -7 -246 158 -246s212 145 226 246l60 420h66zM317 840c4 27 28 48 55 48s45 -21 41 -48s-28 -48 -55 -48s-45 21 -41 48zM507 840c4 27 28 48 55 48s45 -21 41 -48
s-28 -48 -55 -48s-45 21 -41 48z" />
    <glyph glyph-name="Ugrave" unicode="&#xd9;" horiz-adv-x="684" 
d="M700 708l-62 -437c-21 -151 -106 -289 -299 -289s-238 138 -217 289l62 437h66l-60 -420c-14 -101 -7 -246 158 -246s212 145 226 246l60 420h66zM422 896l84 -144h-50l-114 144h80z" />
    <glyph glyph-name="Yacute" unicode="&#xdd;" horiz-adv-x="574" 
d="M254 0l43 305l-203 403h79l166 -336l267 336h74l-317 -403l-43 -305h-66zM335 752l124 144h80l-154 -144h-50z" />
    <glyph glyph-name="Ydieresis" unicode="&#x178;" horiz-adv-x="574" 
d="M254 0l43 305l-203 403h79l166 -336l267 336h74l-317 -403l-43 -305h-66zM262 840c4 27 28 48 55 48s45 -21 41 -48s-28 -48 -55 -48s-45 21 -41 48zM452 840c4 27 28 48 55 48s45 -21 41 -48s-28 -48 -55 -48s-45 21 -41 48z" />
    <glyph glyph-name="Zcaron" unicode="&#x17d;" horiz-adv-x="556" 
d="M23 0l7 52l498 596h-408l9 60h493l-8 -54l-501 -594h428l-8 -60h-510zM543 896l-126 -144h-70l-89 144h62l67 -114l102 114h54z" />
    <glyph glyph-name="aacute" unicode="&#xe1;" horiz-adv-x="519" 
d="M482 307l-16 -113c-12 -90 -18 -141 -18 -194h-56c-1 23 1 49 5 75h-2c-43 -59 -97 -87 -175 -87c-79 0 -157 39 -143 137c19 141 186 155 277 155h70l4 28c12 80 -40 112 -114 112c-54 0 -102 -17 -148 -52l-30 41c50 42 126 65 186 65c112 0 177 -50 160 -167zM418 232
h-66c-100 0 -204 -25 -215 -104c-8 -57 43 -86 93 -86c128 0 172 82 183 159zM281 564l125 144h80l-155 -144h-50z" />
    <glyph glyph-name="acircumflex" unicode="&#xe2;" horiz-adv-x="519" 
d="M482 307l-16 -113c-12 -90 -18 -141 -18 -194h-56c-1 23 1 49 5 75h-2c-43 -59 -97 -87 -175 -87c-79 0 -157 39 -143 137c19 141 186 155 277 155h70l4 28c12 80 -40 112 -114 112c-54 0 -102 -17 -148 -52l-30 41c50 42 126 65 186 65c112 0 177 -50 160 -167zM418 232
h-66c-100 0 -204 -25 -215 -104c-8 -57 43 -86 93 -86c128 0 172 82 183 159zM196 564l129 144h70l87 -144h-65l-66 108l-96 -108h-59z" />
    <glyph glyph-name="adieresis" unicode="&#xe4;" horiz-adv-x="519" 
d="M482 307l-16 -113c-12 -90 -18 -141 -18 -194h-56c-1 23 1 49 5 75h-2c-43 -59 -97 -87 -175 -87c-79 0 -157 39 -143 137c19 141 186 155 277 155h70l4 28c12 80 -40 112 -114 112c-54 0 -102 -17 -148 -52l-30 41c50 42 126 65 186 65c112 0 177 -50 160 -167zM418 232
h-66c-100 0 -204 -25 -215 -104c-8 -57 43 -86 93 -86c128 0 172 82 183 159zM209 652c3 27 27 48 54 48s45 -21 42 -48c-4 -27 -28 -48 -55 -48s-45 21 -41 48zM399 652c3 27 27 48 54 48s45 -21 42 -48c-4 -27 -28 -48 -55 -48s-45 21 -41 48z" />
    <glyph glyph-name="agrave" unicode="&#xe0;" horiz-adv-x="519" 
d="M482 307l-16 -113c-12 -90 -18 -141 -18 -194h-56c-1 23 1 49 5 75h-2c-43 -59 -97 -87 -175 -87c-79 0 -157 39 -143 137c19 141 186 155 277 155h70l4 28c12 80 -40 112 -114 112c-54 0 -102 -17 -148 -52l-30 41c50 42 126 65 186 65c112 0 177 -50 160 -167zM418 232
h-66c-100 0 -204 -25 -215 -104c-8 -57 43 -86 93 -86c128 0 172 82 183 159zM314 708l83 -144h-50l-113 144h80z" />
    <glyph glyph-name="aring" unicode="&#xe5;" horiz-adv-x="519" 
d="M482 307l-16 -113c-12 -90 -18 -141 -18 -194h-56c-1 23 1 49 5 75h-2c-43 -59 -97 -87 -175 -87c-79 0 -157 39 -143 137c19 141 186 155 277 155h70l4 28c12 80 -40 112 -114 112c-54 0 -102 -17 -148 -52l-30 41c50 42 126 65 186 65c112 0 177 -50 160 -167zM418 232
h-66c-100 0 -204 -25 -215 -104c-8 -57 43 -86 93 -86c128 0 172 82 183 159zM258 649c7 51 56 95 108 95s85 -46 78 -96c-7 -49 -54 -94 -105 -94c-52 0 -88 44 -81 95zM408 649c5 33 -15 59 -48 59s-61 -27 -66 -60s17 -58 49 -58c33 0 61 26 65 59z" />
    <glyph glyph-name="atilde" unicode="&#xe3;" horiz-adv-x="519" 
d="M482 307l-16 -113c-12 -90 -18 -141 -18 -194h-56c-1 23 1 49 5 75h-2c-43 -59 -97 -87 -175 -87c-79 0 -157 39 -143 137c19 141 186 155 277 155h70l4 28c12 80 -40 112 -114 112c-54 0 -102 -17 -148 -52l-30 41c50 42 126 65 186 65c112 0 177 -50 160 -167zM418 232
h-66c-100 0 -204 -25 -215 -104c-8 -57 43 -86 93 -86c128 0 172 82 183 159zM222 581h-36c6 23 19 49 36 68c18 20 41 34 68 34s50 -13 71 -25c21 -11 41 -23 60 -23c29 0 47 24 55 48h36c-13 -49 -45 -102 -98 -102c-26 0 -50 13 -72 24s-43 24 -63 24
c-31 0 -48 -24 -57 -48z" />
    <glyph glyph-name="ccedilla" unicode="&#xe7;" horiz-adv-x="481" 
d="M436 106l41 -38c-53 -54 -116 -80 -182 -80c-5 0 -9 0 -14 1l-45 -53l2 -2c9 5 19 7 32 7c43 0 79 -24 73 -72c-9 -60 -72 -85 -124 -85c-33 0 -64 7 -92 21l18 32c21 -12 45 -17 74 -17c26 0 64 12 69 43c4 30 -24 42 -50 42c-17 0 -32 -3 -45 -8l-14 15l68 81
c-112 19 -178 113 -161 238c20 141 136 243 278 243c67 0 123 -29 160 -80l-53 -36c-29 38 -67 62 -115 62c-113 0 -195 -85 -210 -189c-14 -104 44 -189 157 -189c50 0 97 26 133 64z" />
    <glyph glyph-name="eacute" unicode="&#xe9;" horiz-adv-x="556" 
d="M461 124l39 -37c-57 -70 -132 -99 -214 -99c-141 0 -219 101 -199 244c19 138 130 242 265 242c142 0 201 -109 186 -216l-6 -42h-388c-7 -50 11 -174 151 -174c61 0 129 32 166 82zM152 270h328c11 82 -50 150 -139 150c-131 0 -186 -126 -189 -150zM299 564l125 144h80
l-155 -144h-50z" />
    <glyph glyph-name="ecircumflex" unicode="&#xea;" horiz-adv-x="556" 
d="M461 124l39 -37c-57 -70 -132 -99 -214 -99c-141 0 -219 101 -199 244c19 138 130 242 265 242c142 0 201 -109 186 -216l-6 -42h-388c-7 -50 11 -174 151 -174c61 0 129 32 166 82zM152 270h328c11 82 -50 150 -139 150c-131 0 -186 -126 -189 -150zM214 564l129 144h70
l87 -144h-65l-66 108l-96 -108h-59z" />
    <glyph glyph-name="edieresis" unicode="&#xeb;" horiz-adv-x="556" 
d="M461 124l39 -37c-57 -70 -132 -99 -214 -99c-141 0 -219 101 -199 244c19 138 130 242 265 242c142 0 201 -109 186 -216l-6 -42h-388c-7 -50 11 -174 151 -174c61 0 129 32 166 82zM152 270h328c11 82 -50 150 -139 150c-131 0 -186 -126 -189 -150zM227 652
c3 27 27 48 54 48s45 -21 42 -48c-4 -27 -28 -48 -55 -48s-45 21 -41 48zM417 652c3 27 27 48 54 48s45 -21 42 -48c-4 -27 -28 -48 -55 -48s-45 21 -41 48z" />
    <glyph glyph-name="egrave" unicode="&#xe8;" horiz-adv-x="556" 
d="M461 124l39 -37c-57 -70 -132 -99 -214 -99c-141 0 -219 101 -199 244c19 138 130 242 265 242c142 0 201 -109 186 -216l-6 -42h-388c-7 -50 11 -174 151 -174c61 0 129 32 166 82zM152 270h328c11 82 -50 150 -139 150c-131 0 -186 -126 -189 -150zM332 708l83 -144
h-50l-113 144h80z" />
    <glyph glyph-name="iacute" unicode="&#xed;" horiz-adv-x="240" 
d="M90 0l65 462h60l-65 -462h-60zM141 564l125 144h80l-155 -144h-50z" />
    <glyph glyph-name="icircumflex" unicode="&#xee;" horiz-adv-x="240" 
d="M90 0l65 462h60l-65 -462h-60zM56 564l129 144h70l87 -144h-65l-66 108l-96 -108h-59z" />
    <glyph glyph-name="idieresis" unicode="&#xef;" horiz-adv-x="240" 
d="M90 0l65 462h60l-65 -462h-60zM69 652c3 27 27 48 54 48s45 -21 42 -48c-4 -27 -28 -48 -55 -48s-45 21 -41 48zM259 652c3 27 27 48 54 48s45 -21 42 -48c-4 -27 -28 -48 -55 -48s-45 21 -41 48z" />
    <glyph glyph-name="igrave" unicode="&#xec;" horiz-adv-x="240" 
d="M90 0l65 462h60l-65 -462h-60zM174 708l83 -144h-50l-113 144h80z" />
    <glyph glyph-name="ntilde" unicode="&#xf1;" horiz-adv-x="556" 
d="M80 0l47 332c4 34 10 106 13 130h60c-4 -34 -8 -72 -7 -81h3c31 51 96 93 171 93c144 0 162 -98 148 -199l-39 -275h-60l38 272c11 75 0 148 -95 148c-89 0 -169 -62 -187 -189l-32 -231h-60zM240 581h-36c6 23 19 49 36 68c18 20 41 34 68 34s50 -13 71 -25
c21 -11 41 -23 60 -23c29 0 47 24 55 48h36c-13 -49 -45 -102 -98 -102c-26 0 -50 13 -72 24s-43 24 -63 24c-31 0 -48 -24 -57 -48z" />
    <glyph glyph-name="oacute" unicode="&#xf3;" horiz-adv-x="594" 
d="M86 231c20 141 136 243 278 243s228 -102 208 -243c-19 -141 -135 -243 -277 -243s-228 102 -209 243zM146 231c-14 -104 44 -189 157 -189s195 85 209 189c15 104 -43 189 -156 189s-195 -85 -210 -189zM318 564l125 144h80l-155 -144h-50z" />
    <glyph glyph-name="ocircumflex" unicode="&#xf4;" horiz-adv-x="594" 
d="M86 231c20 141 136 243 278 243s228 -102 208 -243c-19 -141 -135 -243 -277 -243s-228 102 -209 243zM146 231c-14 -104 44 -189 157 -189s195 85 209 189c15 104 -43 189 -156 189s-195 -85 -210 -189zM233 564l129 144h70l87 -144h-65l-66 108l-96 -108h-59z" />
    <glyph glyph-name="odieresis" unicode="&#xf6;" horiz-adv-x="594" 
d="M86 231c20 141 136 243 278 243s228 -102 208 -243c-19 -141 -135 -243 -277 -243s-228 102 -209 243zM146 231c-14 -104 44 -189 157 -189s195 85 209 189c15 104 -43 189 -156 189s-195 -85 -210 -189zM246 652c3 27 27 48 54 48s45 -21 42 -48c-4 -27 -28 -48 -55 -48
s-45 21 -41 48zM436 652c3 27 27 48 54 48s45 -21 42 -48c-4 -27 -28 -48 -55 -48s-45 21 -41 48z" />
    <glyph glyph-name="ograve" unicode="&#xf2;" horiz-adv-x="594" 
d="M86 231c20 141 136 243 278 243s228 -102 208 -243c-19 -141 -135 -243 -277 -243s-228 102 -209 243zM146 231c-14 -104 44 -189 157 -189s195 85 209 189c15 104 -43 189 -156 189s-195 -85 -210 -189zM351 708l83 -144h-50l-113 144h80z" />
    <glyph glyph-name="otilde" unicode="&#xf5;" horiz-adv-x="594" 
d="M86 231c20 141 136 243 278 243s228 -102 208 -243c-19 -141 -135 -243 -277 -243s-228 102 -209 243zM146 231c-14 -104 44 -189 157 -189s195 85 209 189c15 104 -43 189 -156 189s-195 -85 -210 -189zM259 581h-36c6 23 19 49 36 68c18 20 41 34 68 34s50 -13 71 -25
c21 -11 41 -23 60 -23c29 0 47 24 55 48h36c-13 -49 -45 -102 -98 -102c-26 0 -50 13 -72 24s-43 24 -63 24c-31 0 -48 -24 -57 -48z" />
    <glyph glyph-name="scaron" unicode="&#x161;" horiz-adv-x="426" 
d="M40 82l58 36c18 -49 69 -76 123 -76c52 0 110 32 118 85c18 127 -269 38 -244 214c13 90 101 133 177 133c75 0 129 -28 150 -87l-58 -32c-17 42 -46 65 -100 65c-43 0 -102 -26 -108 -74c-18 -125 270 -28 243 -215c-13 -95 -99 -143 -187 -143c-79 0 -145 30 -172 94z
M452 708l-127 -144h-70l-88 144h62l66 -114l103 114h54z" />
    <glyph glyph-name="uacute" unicode="&#xfa;" horiz-adv-x="556" 
d="M536 462l-47 -332c-5 -34 -10 -106 -13 -130h-60c4 34 8 72 7 81h-3c-31 -51 -96 -93 -171 -93c-144 0 -162 98 -148 199l39 275h60l-38 -272c-11 -75 0 -148 95 -148c89 0 169 62 186 189l33 231h60zM299 564l125 144h80l-155 -144h-50z" />
    <glyph glyph-name="ucircumflex" unicode="&#xfb;" horiz-adv-x="556" 
d="M536 462l-47 -332c-5 -34 -10 -106 -13 -130h-60c4 34 8 72 7 81h-3c-31 -51 -96 -93 -171 -93c-144 0 -162 98 -148 199l39 275h60l-38 -272c-11 -75 0 -148 95 -148c89 0 169 62 186 189l33 231h60zM214 564l129 144h70l87 -144h-65l-66 108l-96 -108h-59z" />
    <glyph glyph-name="udieresis" unicode="&#xfc;" horiz-adv-x="556" 
d="M536 462l-47 -332c-5 -34 -10 -106 -13 -130h-60c4 34 8 72 7 81h-3c-31 -51 -96 -93 -171 -93c-144 0 -162 98 -148 199l39 275h60l-38 -272c-11 -75 0 -148 95 -148c89 0 169 62 186 189l33 231h60zM227 652c3 27 27 48 54 48s45 -21 42 -48c-4 -27 -28 -48 -55 -48
s-45 21 -41 48zM417 652c3 27 27 48 54 48s45 -21 42 -48c-4 -27 -28 -48 -55 -48s-45 21 -41 48z" />
    <glyph glyph-name="ugrave" unicode="&#xf9;" horiz-adv-x="556" 
d="M536 462l-47 -332c-5 -34 -10 -106 -13 -130h-60c4 34 8 72 7 81h-3c-31 -51 -96 -93 -171 -93c-144 0 -162 98 -148 199l39 275h60l-38 -272c-11 -75 0 -148 95 -148c89 0 169 62 186 189l33 231h60zM332 708l83 -144h-50l-113 144h80z" />
    <glyph glyph-name="yacute" unicode="&#xfd;" horiz-adv-x="463" 
d="M513 462l-323 -605c-31 -59 -75 -97 -141 -97c-20 0 -39 4 -57 9l13 56c17 -5 35 -11 53 -11c44 0 69 41 88 77l57 107l-123 464h67l98 -389l204 389h64zM253 564l125 144h80l-155 -144h-50z" />
    <glyph glyph-name="ydieresis" unicode="&#xff;" horiz-adv-x="463" 
d="M513 462l-323 -605c-31 -59 -75 -97 -141 -97c-20 0 -39 4 -57 9l13 56c17 -5 35 -11 53 -11c44 0 69 41 88 77l57 107l-123 464h67l98 -389l204 389h64zM181 652c3 27 27 48 54 48s45 -21 42 -48c-4 -27 -28 -48 -55 -48s-45 21 -41 48zM371 652c3 27 27 48 54 48
s45 -21 42 -48c-4 -27 -28 -48 -55 -48s-45 21 -41 48z" />
    <glyph glyph-name="zcaron" unicode="&#x17e;" horiz-adv-x="426" 
d="M27 0l5 36l329 372h-263l8 54h346l-5 -36l-328 -372h288l-8 -54h-372zM452 708l-127 -144h-70l-88 144h62l66 -114l103 114h54z" />
    <glyph glyph-name="Delta" unicode="&#x2206;" horiz-adv-x="605" 
d="M31 0l6 43l336 682h66l142 -681l-6 -44h-544zM97 49h422l-87 413c-9 55 -32 138 -37 186h-4c-16 -40 -57 -117 -82 -172z" />
    <glyph glyph-name="Omega" unicode="&#x2126;" horiz-adv-x="676" 
d="M200 50v3c-60 67 -105 180 -85 325c29 206 171 338 327 338c163 0 250 -150 224 -334c-22 -151 -104 -269 -179 -329v-3h145l-7 -50h-219l5 37c84 56 172 175 194 333c19 134 -29 296 -171 296c-134 0 -238 -132 -261 -297c-21 -148 34 -279 100 -332l-5 -37h-219l7 50
h144z" />
    <glyph glyph-name="uni03BC" unicode="&#x3bc;" horiz-adv-x="556" 
d="M536 462l-47 -332c-5 -34 -10 -106 -13 -130h-60c4 34 8 72 7 81h-3c-31 -51 -96 -93 -171 -93c-54 0 -88 14 -111 38l-36 -254h-59l97 690h60l-38 -272c-11 -75 0 -148 95 -148c89 0 169 62 186 189l33 231h60z" />
    <glyph glyph-name="pi" unicode="&#x3c0;" horiz-adv-x="530" 
d="M568 472h-77l-46 -327c-11 -84 -10 -120 -6 -145h-57c-6 15 -7 56 5 139l46 333h-180c-25 -138 -89 -377 -138 -472h-57c52 107 112 328 136 472c-61 0 -88 -6 -107 -13l-6 40c25 14 64 25 134 25h367z" />
    <glyph glyph-name="Euro" unicode="&#x20ac;" 
d="M502 79c-40 -51 -116 -91 -185 -91c-129 0 -195 90 -194 255h-72l20 47h55c1 19 3 39 6 60c4 27 10 53 15 77h-71l22 47h63c60 185 177 246 281 246c62 0 114 -18 138 -31l-26 -56c-27 16 -62 33 -111 33c-99 0 -177 -65 -219 -192h271l-19 -47h-266
c-6 -25 -11 -51 -15 -80c-3 -20 -5 -39 -6 -57h234l-19 -47h-217c0 -123 40 -204 138 -204c56 0 110 31 139 71z" />
    <glyph glyph-name="afii61289" unicode="&#x2113;" horiz-adv-x="452" 
d="M417 135l27 -24c-49 -75 -113 -118 -187 -118c-109 0 -138 89 -126 195l2 14c-19 -14 -41 -32 -61 -48l-15 36c30 24 58 46 85 70l39 282c26 183 106 236 172 236c76 0 104 -68 91 -157c-18 -129 -114 -253 -249 -374l-5 -33c-17 -127 27 -174 85 -174
c61 0 113 52 142 95zM237 547l-34 -238c100 99 184 202 199 310c10 68 -4 112 -56 112c-38 0 -90 -47 -109 -184z" />
    <glyph glyph-name="estimated" unicode="&#x212e;" horiz-adv-x="984" 
d="M949 344h-659c-3 0 -5 -1 -5 -5v-199c0 -8 3 -16 9 -23c64 -66 151 -108 249 -108c105 0 198 48 262 121h58c-72 -85 -190 -141 -321 -141c-224 0 -406 163 -406 365s182 366 406 366c225 0 407 -164 407 -366v-10zM799 370v200c0 9 -3 17 -9 24
c-64 63 -151 104 -247 104c-97 0 -184 -42 -248 -107c-7 -7 -10 -16 -10 -25v-196c0 -2 2 -7 5 -7h505c3 0 4 5 4 7z" />
    <glyph glyph-name="partialdiff" unicode="&#x2202;" horiz-adv-x="509" 
d="M193 692l-16 44c36 27 88 54 161 54c117 0 217 -115 180 -379c-34 -243 -141 -418 -300 -418c-119 0 -162 109 -145 229c22 158 133 258 237 258c88 0 134 -63 145 -95h1c3 12 6 32 7 45c27 189 -40 310 -137 310c-58 0 -102 -24 -133 -48zM230 43h1
c94 0 174 126 209 275c-10 48 -52 113 -128 113c-82 0 -164 -93 -181 -207c-15 -108 24 -181 99 -181z" />
    <glyph glyph-name="product" unicode="&#x220f;" horiz-adv-x="752" 
d="M726 650h-104v-747h-58v747h-278v-747h-58v747h-103v55h601v-55z" />
    <glyph glyph-name="summation" unicode="&#x2211;" horiz-adv-x="619" 
d="M598 -98h-476v42l260 358l-248 361v42h449v-52h-367v-4l234 -338l-252 -347v-4h400v-58z" />
    <glyph glyph-name="uni2219" unicode="&#x2219;" horiz-adv-x="260" 
d="M127 318c3 27 27 48 54 48s45 -21 42 -48c-4 -27 -28 -48 -55 -48s-45 21 -41 48z" />
    <glyph glyph-name="radical" unicode="&#x221a;" horiz-adv-x="640" 
d="M637 837l-209 -991h-55l-155 477l-71 -27l-13 39l123 47l126 -383c5 -25 12 -55 16 -73l1 -1c2 18 7 47 12 71l179 841h46z" />
    <glyph glyph-name="infinity" unicode="&#x221e;" horiz-adv-x="809" 
d="M760 294v-1c0 -91 -70 -150 -145 -150c-62 0 -110 40 -178 116c-51 -58 -105 -116 -184 -116c-77 0 -142 65 -142 147c0 86 63 150 149 150c73 0 129 -57 180 -117c52 58 101 117 182 117c83 0 138 -60 138 -146zM259 183h1c64 0 113 63 154 106c-44 53 -90 112 -161 112
c-63 0 -98 -53 -98 -112s42 -106 104 -106zM617 401h-1c-66 0 -120 -74 -154 -108c65 -71 103 -110 156 -110c63 0 99 55 99 107c0 71 -43 111 -100 111z" />
    <glyph glyph-name="integral" unicode="&#x222b;" horiz-adv-x="436" 
d="M420 846l-12 -43c-7 5 -22 10 -34 10c-16 0 -36 -7 -49 -24c-25 -31 -33 -83 -33 -183c0 -156 12 -354 12 -515c0 -112 -20 -170 -43 -204c-20 -31 -53 -46 -88 -46c-23 0 -48 9 -59 16l12 44c8 -3 25 -11 43 -11c16 0 34 9 45 24c19 26 34 72 34 178
c0 162 -12 363 -12 520c0 108 13 170 49 210c23 25 54 37 85 37c19 0 41 -7 50 -13z" />
    <glyph glyph-name="approxequal" unicode="&#x2248;" horiz-adv-x="596" 
d="M524 424l27 -22c-24 -50 -61 -91 -121 -91c-39 0 -66 15 -112 41c-30 17 -59 33 -90 33c-45 0 -72 -34 -96 -73l-28 21c29 57 75 92 130 92c47 0 82 -27 108 -41c33 -18 56 -33 91 -33c39 0 65 25 91 73zM524 264l27 -22c-24 -50 -61 -91 -121 -91c-39 0 -66 15 -112 41
c-31 17 -59 33 -90 33c-46 0 -72 -35 -96 -73l-28 21c29 58 75 92 130 92c47 0 82 -26 108 -40c32 -18 56 -34 92 -34c39 0 63 25 90 73z" />
    <glyph glyph-name="notequal" unicode="&#x2260;" horiz-adv-x="609" 
d="M450 496l-44 -96h153v-42h-170l-65 -143h235v-41h-252l-52 -113l-33 15l45 98h-146v41h163l65 143h-228v42h245l51 111z" />
    <glyph glyph-name="lessequal" unicode="&#x2264;" horiz-adv-x="619" 
d="M567 102l-430 220v43l429 220v-51l-383 -188v-2l384 -191v-51zM569 18h-437v43h437v-43z" />
    <glyph glyph-name="greaterequal" unicode="&#x2265;" horiz-adv-x="619" 
d="M138 585l429 -220v-43l-429 -220v51l383 189v3l-383 189v51zM569 18h-436v43h436v-43z" />
    <glyph glyph-name="lozenge" unicode="&#x25ca;" horiz-adv-x="641" 
d="M588 352l-193 -393h-49l-191 393l193 395h49zM532 351l-142 290c-7 16 -14 38 -18 52h-3c-4 -15 -9 -33 -18 -52l-141 -287l143 -292c9 -20 14 -39 17 -51h3c3 13 11 37 17 51z" />
    <glyph glyph-name="uni00A0" unicode="&#xa0;" horiz-adv-x="260" 
 />
    <glyph glyph-name="uni00AD" unicode="&#xad;" horiz-adv-x="333" 
d="M73 210l7 54h247l-7 -54h-247z" />
    <glyph glyph-name="uni02C9" unicode="&#x2c9;" horiz-adv-x="240" 
d="M344 654l-7 -48h-264l7 48h264z" />
    <glyph glyph-name="uni03A9" unicode="&#x3a9;" horiz-adv-x="676" 
d="M200 50v3c-60 67 -105 180 -85 325c29 206 171 338 327 338c163 0 250 -150 224 -334c-22 -151 -104 -269 -179 -329v-3h145l-7 -50h-219l5 37c84 56 172 175 194 333c19 134 -29 296 -171 296c-134 0 -238 -132 -261 -297c-21 -148 34 -279 100 -332l-5 -37h-219l7 50
h144z" />
    <glyph glyph-name="uni2215" unicode="&#x2215;" horiz-adv-x="168" 
d="M-168 -6l561 748l42 -28l-562 -748z" />
    </font>
</defs>
</svg>
